<?xml version="1.0" standalone="no"?>
<!DOCTYPE svg PUBLIC "-//W3C//DTD SVG 1.1//EN" "http://www.w3.org/Graphics/SVG/1.1/DTD/svg11.dtd">
<svg xmlns="http://www.w3.org/2000/svg">
<defs >
<font id="Arimo" horiz-adv-x="1190" ><font-face
    font-family="Arimo SemiBold"
    units-per-em="2048"
    panose-1="2 11 6 4 2 2 2 2 2 4"
    ascent="1854"
    descent="-434"
    alphabetic="0" />
<glyph unicode=" " horiz-adv-x="569" />
<glyph unicode="!" horiz-adv-x="644" d="M452 1409L423 416H220L191 1409H452ZM447 247V0H190V247H447Z" />
<glyph unicode="&quot;" horiz-adv-x="890" d="M771 1409L744 921H551L526 1409H771ZM362 1409L337 921H144L119 1409H362Z" />
<glyph unicode="#" horiz-adv-x="1139" d="M336 390L255 0H116L197 390H26V525H227L299 870H77V1004H327L413 1397H552L468 1004H793L879 1397H1019L934 1004H1114V870H905L833 525H1063V390H804L720 0H580L662 390H336ZM366 525H693L766 870H441L366 525Z" />
<glyph unicode="$" horiz-adv-x="1139" d="M519 20Q305 28 184 120T25 398L253 442Q274 327 338 272T519 207V633Q474 644 424 658T329 689T255 723Q166 774 122 849T77 1035Q77 1198 190 1287T519 1386V1519H633V1386Q757 1380 844 1347T987 1242T1075 1046L841
1009Q824 1098 775 1147T633 1207V824Q678 815 730 801T844 765Q980 716 1044 629T1109 407Q1109 231 988 132T633 22V-149H519V20ZM309 1039Q309 989 328 957Q349 919 391 897T519 849V1211Q309 1197 309 1039ZM878 403Q878 458 858 493T798 551Q758 573 633 608V207Q754
215 816 264T878 403Z" />
<glyph unicode="%" horiz-adv-x="1821" d="M403 1424Q742 1424 742 976Q742 759 656 643T399 527Q230 527 144 642T58 976Q58 1202 141 1313T403 1424ZM1467 1409L544 0H355L1275 1409H1467ZM549 976Q549 1140 516 1212T403 1284Q319 1284 285 1213T251 976Q251
814 286 741T401 668Q480 668 514 741T549 976ZM1761 433Q1761 216 1674 101T1418 -15Q1249 -15 1163 98T1077 433Q1077 658 1160 770T1422 882Q1597 882 1679 769T1761 433ZM1568 433Q1568 599 1535 671T1422 743Q1338 743 1305 670T1271 433Q1271 268 1305 198T1420
127Q1498 127 1533 200T1568 433Z" />
<glyph unicode="&amp;" horiz-adv-x="1441" d="M84 380Q84 517 166 623T424 809Q388 879 368 954T347 1095Q347 1249 443 1333T716 1417Q878 1417 974 1339T1070 1124Q1070 1050 1034 989T926 873Q885 843 823 809T672 736Q775 550 932 374Q1039 536 1095 753L1282
692Q1217 456 1083 256Q1172 174 1271 174Q1339 174 1388 190V10Q1334 -12 1254 -12Q1167 -12 1085 19T934 111Q770 -20 558 -20Q332 -20 208 85T84 380ZM870 1123Q870 1185 828 1224T714 1263Q630 1263 587 1218T543 1094Q543 999 601 884Q715 932 766 965Q816
999 843 1037T870 1123ZM790 236Q702 337 630 438T503 640Q309 552 309 384Q309 277 378 214T567 150Q634 150 692 175T790 236Z" />
<glyph unicode="&apos;" horiz-adv-x="455" d="M350 1409L325 921H132L107 1409H350Z" />
<glyph unicode="(" horiz-adv-x="682" d="M431 -425Q320 -279 249 -131T144 179T110 530Q110 719 144 881T249 1191T431 1484H677Q509 1263 432 1034T355 530Q355 347 388 186T493 -124T677 -425H431Z" />
<glyph unicode=")" horiz-adv-x="682" d="M5 -425Q119 -274 189 -125T293 186T327 530Q327 806 250 1035T5 1484H251Q363 1338 433 1190T538 880T572 531Q572 343 538 181T434 -130T251 -425H5Z" />
<glyph unicode="*" horiz-adv-x="797" d="M710 766L548 661L400 915L249 662L85 768L275 991L15 1056L75 1232L324 1127L308 1409H496L480 1128L725 1232L785 1056L524 991L710 766Z" />
<glyph unicode="+" horiz-adv-x="1196" d="M698 582V167H498V582H91V780H498V1195H698V780H1107V582H698Z" />
<glyph unicode="," horiz-adv-x="569" d="M416 61Q416 -54 393 -139T318 -299H154Q209 -229 241 -151T274 0H159V276H416V61Z" />
<glyph unicode="-" horiz-adv-x="682" d="M597 643V427H84V643H597Z" />
<glyph unicode="." horiz-adv-x="569" d="M413 276V0H155V276H413Z" />
<glyph unicode="/" horiz-adv-x="569" d="M556 1484L229 -34H13L344 1484H556Z" />
<glyph unicode="0" horiz-adv-x="1139" d="M1056 705Q1056 349 933 165T566 -20Q323 -20 202 162T81 705Q81 1073 197 1251T573 1430Q823 1430 939 1249T1056 705ZM807 705Q807 900 786 1016T713 1183T572 1235Q478 1235 425 1184T351 1016T329 705Q329 512 351
396T426 228T568 176Q701 176 754 301T807 705Z" />
<glyph unicode="1" horiz-adv-x="1139" d="M1068 190V0H138V190H490V1192L159 976V1180L505 1409H738V190H1068Z" />
<glyph unicode="2" horiz-adv-x="1139" d="M1050 205V0H82V172Q123 265 185 347T328 505T503 657Q566 708 612 751T689 831Q730 877 753 925T776 1027Q776 1127 723 1179T567 1231Q469 1231 413 1178T342 1023L92 1039Q115 1226 238 1328T566 1430Q789 1430 908
1327T1028 1037Q1028 939 986 856T874 699Q825 645 754 588T605 467Q520 398 459 335T369 205H1050Z" />
<glyph unicode="3" horiz-adv-x="1139" d="M1060 390Q1060 193 932 86T567 -22Q344 -22 213 80T57 376L310 398Q340 180 566 180Q679 180 742 235T805 404Q805 505 731 559T511 614H411V818H505Q635 818 703 872T771 1026Q771 1122 717 1176T556 1231Q459 1231
399 1179T329 1031L81 1049Q103 1228 230 1329T560 1430Q778 1430 900 1331T1023 1056Q1023 923 946 838T724 724V720Q884 702 972 614T1060 390Z" />
<glyph unicode="4" horiz-adv-x="1139" d="M920 298V0H685V298H36V485L648 1409H920V484H1112V298H920ZM244 484H685V979Q685 1030 687 1087T692 1172Q676 1139 655 1103T606 1024L244 484Z" />
<glyph unicode="5" horiz-adv-x="1139" d="M1072 466Q1072 242 935 111T558 -20Q351 -20 226 72T69 340L317 362Q342 267 403 223T561 178Q679 178 748 251T817 460Q817 579 751 650T566 722Q503 722 450 700T352 628H110L159 1409H990V1219H383L359 832Q466 922
626 922Q762 922 862 866T1017 708T1072 466Z" />
<glyph unicode="6" horiz-adv-x="1139" d="M1060 461Q1060 237 936 109T592 -20Q347 -20 216 155T85 672Q85 1045 219 1237T601 1430Q774 1430 876 1354T1021 1118L787 1083Q745 1233 597 1233Q470 1233 399 1110T328 743Q374 823 457 865T646 908Q837 908 948
788T1060 461ZM811 453Q811 584 749 654T577 724Q473 724 410 660T347 487Q347 397 377 326T460 215T584 174Q691 174 751 248T811 453Z" />
<glyph unicode="7" horiz-adv-x="1139" d="M1045 1212Q945 1057 864 920T725 657Q653 500 614 339T575 0H317Q317 154 350 298T455 603Q508 722 593 866T813 1204H94V1409H1045V1212Z" />
<glyph unicode="8" horiz-adv-x="1139" d="M1067 396Q1067 199 939 90T571 -20Q335 -20 204 88T73 394Q73 530 151 623T358 737V741Q244 767 175 855T106 1061Q106 1230 228 1330T567 1430Q789 1430 910 1333T1032 1059Q1032 942 964 854T778 743V739Q914 717
990 627T1067 396ZM777 1046Q777 1254 567 1254Q359 1254 359 1046Q359 938 412 883T569 828Q672 828 724 879T777 1046ZM811 417Q811 534 749 593T565 652Q452 652 390 590T328 413Q328 282 388 220T573 157Q694 157 752 218T811 417Z" />
<glyph unicode="9" horiz-adv-x="1139" d="M1056 729Q1056 358 921 169T535 -20Q356 -20 253 56T106 299L339 332Q383 176 538 176Q669 176 739 299T813 659Q774 579 684 533T489 486Q364 486 272 544T130 708T79 957Q79 1179 206 1304T564 1430Q811 1430 933
1255T1056 729ZM793 918Q793 1062 729 1148T557 1235Q452 1235 391 1161T330 956Q330 827 390 750T557 673Q623 673 676 703T761 789T793 918Z" />
<glyph unicode=":" horiz-adv-x="644" d="M451 1050V793H194V1050H451ZM451 256V0H194V256H451Z" />
<glyph unicode=";" horiz-adv-x="644" d="M453 1050V793H196V1050H453ZM453 61Q453 -54 430 -139T355 -299H191Q250 -222 280 -145T311 0H196V256H453V61Z" />
<glyph unicode="&lt;" horiz-adv-x="1196" d="M1107 337V135L91 534V817L1107 1217V1014L266 675L1107 337Z" />
<glyph unicode="=" horiz-adv-x="1196" d="M1106 1045V847H90V1045H1106ZM1106 505V309H90V505H1106Z" />
<glyph unicode="&gt;" horiz-adv-x="1196" d="M1107 534L91 135V337L932 675L91 1014V1217L1107 817V534Z" />
<glyph unicode="?" horiz-adv-x="1214" d="M1110 1028Q1110 926 1065 848T899 684L822 627Q687 531 682 410H446Q450 486 476 545T550 654T659 746Q726 793 770 833T837 917T860 1017Q860 1114 796 1170T615 1226Q501 1226 428 1164T342 995L91 1007Q117 1209
254 1319T611 1430Q844 1430 977 1323T1110 1028ZM696 247V0H438V247H696Z" />
<glyph unicode="@" horiz-adv-x="2024" d="M1886 735Q1886 552 1825 402Q1763 251 1654 168T1416 84Q1322 84 1271 129T1220 257Q1220 276 1221 293T1225 325H1219Q1164 214 1066 149T861 84Q704 84 618 185T531 469Q531 631 596 775Q661 917 775 999T1032 1081Q1234
1081 1308 904H1314L1353 1059H1509L1392 553Q1355 386 1355 309Q1355 260 1377 238T1434 216Q1515 216 1586 286Q1657 355 1698 473T1739 733Q1739 910 1663 1046Q1587 1181 1442 1254T1105 1328Q865 1328 681 1222Q497 1117 392 918T287 471Q287 277 366 130Q446
-18 591 -95T931 -172Q1078 -172 1225 -134T1525 -14L1585 -133Q1424 -225 1261 -267T927 -310Q689 -310 510 -214Q329 -119 231 60T132 471Q132 753 258 982Q384 1211 606 1337T1103 1464Q1346 1464 1523 1374Q1700 1283 1793 1118T1886 735ZM1253 730Q1253 827
1191 888T1030 949Q934 949 858 886Q782 823 740 709T697 471Q697 355 745 289T893 222Q963 222 1028 264T1145 384Q1180 437 1203 502T1240 628T1253 730Z" />
<glyph unicode="A" horiz-adv-x="1441" d="M435 377L298 0H35L570 1409H874L1404 0H1144L1007 377H435ZM721 1216Q709 1171 689 1111T657 1018L499 575H944L783 1026Q769 1065 753 1114T721 1216Z" />
<glyph unicode="B" horiz-adv-x="1441" d="M1343 400Q1343 210 1202 105T808 0H147V1409H748Q1003 1409 1132 1321T1262 1059Q1262 937 1195 854T993 742Q1163 722 1253 633T1343 400ZM1000 1025Q1000 1126 934 1169T739 1212H408V831H740Q874 831 937 879T1000
1025ZM1082 421Q1082 636 776 636H408V197H788Q941 197 1011 253T1082 421Z" />
<glyph unicode="C" horiz-adv-x="1479" d="M797 187Q1074 187 1192 463L1416 373Q1331 176 1172 78T794 -20Q572 -20 415 67T174 319T91 711Q91 941 171 1101T407 1345T785 1430Q1025 1430 1179 1335T1399 1052L1166 985Q1127 1097 1027 1160T789 1223Q578 1223
466 1091T353 711Q353 546 405 429T557 249T797 187Z" />
<glyph unicode="D" horiz-adv-x="1479" d="M1389 716Q1389 491 1302 331T1061 86T703 0H147V1409H643Q999 1409 1194 1230T1389 716ZM1127 716Q1127 955 1001 1080T637 1206H408V203H679Q816 203 916 265T1071 443T1127 716Z" />
<glyph unicode="E" horiz-adv-x="1366" d="M1283 204V0H147V1409H1242V1205H408V818H1182V615H408V204H1283Z" />
<glyph unicode="F" horiz-adv-x="1251" d="M408 535V0H147V1409H1174V1205H408V740H1150V535H408Z" />
<glyph unicode="G" horiz-adv-x="1593" d="M808 186Q931 186 1043 222T1219 317V532H849V730H1457V223Q1345 108 1172 44T803 -20Q577 -20 418 66T174 317T90 711Q90 1057 275 1243T805 1430Q1048 1430 1202 1343T1427 1075L1185 1002Q1136 1113 1038 1168T803
1223Q583 1223 468 1090T353 711Q353 463 473 325T808 186Z" />
<glyph unicode="H" horiz-adv-x="1479" d="M408 620V0H147V1409H408V836H1071V1409H1331V0H1071V620H408Z" />
<glyph unicode="I" horiz-adv-x="569" d="M415 1409V0H154V1409H415Z" />
<glyph unicode="J" horiz-adv-x="1101" d="M502 -20Q296 -20 183 74T31 371L289 410Q307 299 360 243T503 186Q597 186 647 249T697 431V1203H420V1409H957V437Q957 222 837 101T502 -20Z" />
<glyph unicode="K" horiz-adv-x="1441" d="M408 523V0H147V1409H408V748L1057 1409H1362L760 808L1421 0H1110L585 658L408 523Z" />
<glyph unicode="L" horiz-adv-x="1214" d="M1149 204V0H147V1409H408V204H1149Z" />
<glyph unicode="M" horiz-adv-x="1706" d="M379 883V0H147V1409H494L787 558Q805 494 823 428T855 307Q864 341 875 382T898 463T920 532L1215 1409H1559V0H1327V883Q1327 928 1329 1011T1336 1187Q1305 1068 1280 982T1237 844L946 0H762L469 844L368 1187Q373
1085 376 1009T379 883Z" />
<glyph unicode="N" horiz-adv-x="1479" d="M379 866V0H147V1409H446L1115 277Q1099 444 1099 555V1409H1331V0H1024L363 1123Q370 1049 374 985T379 866Z" />
<glyph unicode="O" horiz-adv-x="1593" d="M1503 711Q1503 489 1416 325T1169 70T794 -20Q574 -20 416 68T173 321T88 711Q88 937 172 1098T415 1344T796 1430Q1017 1430 1175 1344T1418 1097T1503 711ZM1237 711Q1237 951 1122 1087T796 1223Q583 1223 467 1088T351
711Q351 550 404 432T557 250T794 186Q1007 186 1122 323T1237 711Z" />
<glyph unicode="P" horiz-adv-x="1366" d="M1283 970Q1283 835 1222 732T1048 572T779 514H408V0H147V1409H767Q1015 1409 1149 1295T1283 970ZM1021 966Q1021 1205 737 1205H408V715H745Q880 715 950 779T1021 966Z" />
<glyph unicode="Q" horiz-adv-x="1593" d="M1503 711Q1503 520 1439 371T1255 127T965 1Q1001 -107 1064 -155T1235 -203Q1296 -203 1353 -192L1352 -372Q1239 -398 1131 -398Q972 -398 868 -309T700 -12Q506 3 370 95T161 344T88 711Q88 937 172 1098T415 1344T796
1430Q1019 1430 1177 1343T1419 1095T1503 711ZM1237 711Q1237 951 1122 1087T796 1223Q583 1223 467 1088T351 711Q351 550 404 432T556 250T794 186Q1007 186 1122 322T1237 711Z" />
<glyph unicode="R" horiz-adv-x="1479" d="M408 552V0H147V1409H838Q1085 1409 1219 1301T1354 995Q1354 844 1268 737T1032 597L1419 0H1125L785 552H408ZM1092 986Q1092 1094 1021 1149T811 1205H408V755H819Q952 755 1022 815T1092 986Z" />
<glyph unicode="S" horiz-adv-x="1366" d="M1281 400Q1281 197 1128 89T685 -20Q156 -20 70 357L322 401Q352 284 442 231T692 177Q857 177 942 229T1027 386Q1027 449 993 489T897 556Q857 574 789 590T628 627Q520 652 456 672T351 711T277 755Q210 800 173
870T136 1042Q136 1229 278 1329T689 1430Q943 1430 1073 1351T1246 1087L992 1050Q967 1148 893 1195T684 1243Q538 1243 464 1196T390 1056Q390 998 420 961T510 897Q565 871 747 832Q842 811 917 791T1044 749Q1087 730 1122 708T1184 659Q1231 613 1256 549T1281
400Z" />
<glyph unicode="T" horiz-adv-x="1251" d="M755 1205V0H495V1205H31V1409H1221V1205H755Z" />
<glyph unicode="U" horiz-adv-x="1479" d="M726 -20Q539 -20 407 43T205 228T135 523V1409H395V543Q395 368 480 277T731 186Q899 186 991 280T1083 554V1409H1343V539Q1343 363 1269 238T1057 47T726 -20Z" />
<glyph unicode="V" horiz-adv-x="1366" d="M1354 1409L817 0H551L12 1409H285L608 475Q625 425 644 360T685 215Q714 319 731 379T761 475L1083 1409H1354Z" />
<glyph unicode="W" horiz-adv-x="1933" d="M905 853L694 0H385L4 1409H270L485 535Q501 471 518 394T549 242Q558 286 568 335T589 435T611 528L829 1409H1110L1323 561Q1339 498 1356 414T1387 242Q1401 300 1413 352T1437 453T1459 548L1664 1409H1929L1548
0H1239L1030 842Q1015 904 999 979T968 1143Q959 1096 947 1037T923 928T905 853Z" />
<glyph unicode="X" horiz-adv-x="1366" d="M686 579L306 0H27L531 738L68 1409H347L686 893L1022 1409H1299L853 740L1340 0H1063L686 579Z" />
<glyph unicode="Y" horiz-adv-x="1366" d="M813 580V0H554V580L38 1409H314L683 788L1053 1409H1329L813 580Z" />
<glyph unicode="Z" horiz-adv-x="1251" d="M1190 206V0H62V187L856 1203H137V1409H1147V1226L353 206H1190Z" />
<glyph unicode="[" horiz-adv-x="644" d="M622 -255V-425H125V1484H622V1314H361V-255H622Z" />
<glyph unicode="\" horiz-adv-x="569" d="M225 1485L556 -34H340L14 1485H225Z" />
<glyph unicode="]" horiz-adv-x="644" d="M519 1484V-425H22V-255H285V1314H22V1484H519Z" />
<glyph unicode="^" horiz-adv-x="1118" d="M33 567L417 1409H699L1084 567H877L557 1279L239 567H33Z" />
<glyph unicode="_" horiz-adv-x="1139" d="M1159 -207V-302H-24V-207H1159Z" />
<glyph unicode="`" horiz-adv-x="682" d="M560 1216V1189H416L79 1466V1504H320L560 1216Z" />
<glyph unicode="a" horiz-adv-x="1139" d="M400 -20Q241 -20 155 65T69 305Q69 473 179 561T509 653L746 657V714Q746 828 703 881T563 935Q471 935 428 898T376 776L118 791Q170 1102 572 1102Q777 1102 885 1004T994 722V304Q994 217 1014 181T1087 144Q1117
144 1148 150V11Q1102 0 1066 -5T981 -11Q877 -11 829 41T771 198H765Q703 86 613 33T400 -20ZM746 512L584 509Q476 506 427 487Q378 467 352 426T326 318Q326 238 365 197T474 156Q551 156 613 195Q675 234 710 302T746 446V512Z" />
<glyph unicode="b" horiz-adv-x="1214" d="M1129 545Q1129 272 1024 126T720 -20Q602 -20 519 28T389 172H387Q387 150 385 113T380 43T374 0H134Q138 40 139 99T141 239V1484H389V1067Q389 1027 388 985T385 899H389Q437 1003 522 1052T732 1102Q928 1102 1028
959T1129 545ZM871 543Q871 742 815 834T638 926Q512 926 449 828T386 534Q386 348 447 250T636 152Q756 152 813 247T871 543Z" />
<glyph unicode="c" horiz-adv-x="1101" d="M580 -20Q341 -20 212 125T82 537Q82 807 212 954T582 1102Q765 1102 885 1010T1035 754L785 740Q772 825 721 875T577 926Q456 926 399 834T342 546Q342 349 401 252T580 155Q665 155 722 206T794 360L1043 347Q1028
237 966 154T805 26T580 -20Z" />
<glyph unicode="d" horiz-adv-x="1214" d="M841 0Q839 10 836 41T830 111T828 175H824Q776 75 692 28T481 -20Q286 -20 186 124T85 539Q85 812 190 957T495 1102Q612 1102 695 1055T825 912H827L825 1071V1484H1072V232Q1072 170 1074 112T1080 0H841ZM343 541Q343
342 400 248T575 154Q700 154 764 254T828 549Q828 738 766 834T577 930Q457 930 400 836T343 541Z" />
<glyph unicode="e" horiz-adv-x="1139" d="M342 492Q342 325 406 238T593 150Q681 150 736 187T812 292L1042 261Q933 -20 583 -20Q341 -20 212 124T82 547Q82 815 212 958T584 1102Q819 1102 940 951T1062 506V492H342ZM819 656Q808 800 748 870T580 940Q470
940 409 865T344 656H819Z" />
<glyph unicode="f" horiz-adv-x="644" d="M436 912V0H189V912H33V1082H189V1198Q189 1345 262 1414T487 1483Q567 1483 648 1469V1302Q605 1311 567 1311Q496 1311 466 1281T436 1171V1082H648V912H436Z" />
<glyph unicode="g" horiz-adv-x="1214" d="M580 -431Q389 -431 274 -358T130 -148L377 -117Q393 -186 446 -224T587 -262Q710 -262 768 -188T827 34L828 201H826Q778 100 691 50T478 -1Q286 -1 186 137T85 546Q85 819 189 960T499 1102Q616 1102 698 1052T827
904H831Q831 927 833 965T838 1038T844 1082H1078Q1072 992 1072 841V32Q1072 -198 947 -314T580 -431ZM828 551Q828 728 762 828T580 928Q459 928 401 835T342 547Q342 356 398 265T578 173Q695 173 761 272T828 551Z" />
<glyph unicode="h" horiz-adv-x="1214" d="M386 876Q443 994 527 1048T733 1102Q906 1102 995 1001T1085 698V0H838V633Q838 777 789 846T635 915Q524 915 457 828T390 599V0H143V1484H390V1085Q390 1048 389 1009T386 936T382 876H386Z" />
<glyph unicode="i" horiz-adv-x="531" d="M388 1484V1289H141V1484H388ZM388 1082V0H141V1082H388Z" />
<glyph unicode="j" horiz-adv-x="531" d="M389 1484V1289H142V1484H389ZM118 -425Q26 -425 -38 -416V-238Q-24 -239 -11 -240T17 -242Q88 -242 115 -209T142 -76V1082H389V-130Q389 -276 321 -350T118 -425Z" />
<glyph unicode="k" horiz-adv-x="1101" d="M389 399V0H141V1484H389V608L804 1082H1076L676 646L1103 0H828L513 491L389 399Z" />
<glyph unicode="l" horiz-adv-x="531" d="M389 1484V0H141V1484H389Z" />
<glyph unicode="m" horiz-adv-x="1783" d="M390 596V0H143V844Q143 933 141 989T135 1082H371Q373 1067 375 1027T380 944T382 877H386Q440 998 516 1050T701 1103Q825 1103 899 1047T1000 877H1005Q1060 997 1138 1050T1333 1103Q1493 1103 1573 1002T1653 698V0H1408V633Q1408
781 1366 848T1232 916Q1138 916 1080 834T1021 604V0H776V633Q776 781 735 848T601 916Q506 916 448 829T390 596Z" />
<glyph unicode="n" horiz-adv-x="1214" d="M390 596V0H143V844Q143 933 141 989T135 1082H371Q373 1068 375 1029T380 947T382 877H386Q444 997 528 1050T733 1103Q907 1103 996 1002T1085 698V0H838V633Q838 780 789 848T635 916Q523 916 457 828T390 596Z" />
<glyph unicode="o" horiz-adv-x="1214" d="M1132 542Q1132 272 993 126T602 -20Q355 -20 219 128T82 542Q82 809 218 955T608 1102Q868 1102 1000 960T1132 542ZM873 542Q873 745 809 837T612 929Q474 929 408 834T342 542Q342 350 406 251T600 152Q740 152 806
248T873 542Z" />
<glyph unicode="p" horiz-adv-x="1214" d="M1129 546Q1129 271 1024 126T720 -20Q480 -20 389 171H383Q389 148 389 -7V-425H141V842Q141 921 140 981T134 1082H374Q377 1073 379 1042T383 974T385 907H389Q437 1007 521 1055T732 1104Q924 1104 1026 962T1129
546ZM871 545Q871 741 814 834T637 927Q513 927 450 828T386 535Q386 347 448 250T635 152Q755 152 813 247T871 545Z" />
<glyph unicode="q" horiz-adv-x="1214" d="M85 539Q85 812 191 957T496 1103Q616 1103 697 1056T827 910Q827 937 829 975T835 1046T841 1087H1079Q1075 1041 1074 975T1072 822V-425H826V21L831 179H829Q780 77 695 29T481 -20Q286 -20 186 124T85 539ZM828 549Q828
734 766 832T579 930Q458 930 401 834T343 541Q343 342 400 248T577 154Q701 154 764 255T828 549Z" />
<glyph unicode="r" horiz-adv-x="759" d="M390 542V0H143V829Q143 907 141 967T135 1082H371Q373 1061 374 1028T378 960T381 896T382 854H386Q423 962 457 1012Q490 1060 534 1081T644 1103Q693 1103 727 1089V878Q671 891 615 891Q507 891 449 802T390 542Z" />
<glyph unicode="s" horiz-adv-x="1101" d="M1020 310Q1020 155 896 68T551 -20Q335 -20 220 49T67 265L285 300Q306 219 364 185T551 150Q675 150 732 184T790 288Q790 344 746 378T600 434Q509 455 445 472T338 503T270 531Q193 571 152 632T110 782Q110 935
225 1018T553 1102Q741 1102 854 1031T997 819L777 795Q764 863 711 897T553 932Q446 932 393 903T340 808Q340 758 377 728T505 678Q632 651 735 621T895 554Q953 515 986 457T1020 310Z" />
<glyph unicode="t" horiz-adv-x="644" d="M623 13Q525 -17 404 -17Q285 -17 223 48T160 246V912H27V1082H172L248 1332H405V1082H609V912H405V309Q405 231 433 196T525 160Q557 160 623 174V13Z" />
<glyph unicode="u" horiz-adv-x="1214" d="M828 205Q770 86 685 33T481 -20Q307 -20 218 80T129 384V1082H377V449Q377 300 425 233T579 166Q690 166 757 254T824 486V1082H1071V238Q1071 161 1073 102T1078 0H843Q839 50 836 100T832 205H828Z" />
<glyph unicode="v" horiz-adv-x="1101" d="M1092 1082L692 0H397L8 1082H270L475 444Q483 421 500 360T545 198Q552 221 564 263T591 351T617 431L833 1082H1092Z" />
<glyph unicode="w" horiz-adv-x="1555" d="M731 694L550 0H283L-5 1082H230L384 406Q394 364 404 317T424 220Q435 267 444 315T466 409L645 1082H910L1083 410Q1092 377 1103 330T1126 220Q1137 268 1148 317T1169 411L1327 1082H1559L1267 0H999L821 695Q814
724 803 775T778 899Q768 855 757 800T731 694Z" />
<glyph unicode="x" horiz-adv-x="1101" d="M548 409L281 0H17L409 558L36 1082H304L548 706L791 1082H1061L687 561L1083 0H813L548 409Z" />
<glyph unicode="y" horiz-adv-x="1101" d="M252 -425Q160 -425 93 -413V-234Q143 -242 186 -242Q279 -242 335 -186T441 9L12 1082H274L464 545Q485 487 511 405T564 226Q587 311 609 386T657 540L833 1082H1092L668 -38Q639 -113 610 -169T550 -268Q490 -351
419 -388T252 -425Z" />
<glyph unicode="z" horiz-adv-x="1024" d="M941 183V0H82V178L623 900H121V1082H901V902L362 183H941Z" />
<glyph unicode="{" horiz-adv-x="759" d="M542 -425Q411 -425 335 -347T258 -128V211Q258 326 204 383T33 443V615Q150 620 204 676T258 848V1187Q258 1331 332 1407T542 1484H719V1314H659Q568 1314 528 1262T488 1103V784Q488 689 432 621T286 532V529Q379 507
433 439T488 276V-44Q488 -150 528 -202T659 -255H719V-425H542Z" />
<glyph unicode="|" horiz-adv-x="559" d="M395 1484V-448H165V1484H395Z" />
<glyph unicode="}" horiz-adv-x="759" d="M40 -255H98Q190 -255 229 -203T269 -44V276Q269 370 324 438T472 529V532Q382 551 326 619T269 784V1103Q269 1209 230 1261T98 1314H40V1484H215Q351 1484 425 1408T500 1187V848Q500 734 554 677T726 615V443Q608 440
554 382T500 211V-128Q500 -268 424 -346T215 -425H40V-255Z" />
<glyph unicode="~" horiz-adv-x="1196" d="M849 528Q776 528 704 549T557 597Q423 643 337 643Q268 643 209 622T85 555V745Q197 829 353 829Q440 829 553 793Q608 776 654 762T739 735Q766 727 802 720T867 712Q999 712 1114 804V608Q1052 565 994 547T849 528Z" />
<glyph unicode="&#xa0;" horiz-adv-x="569" />
<glyph unicode="&#xa1;" horiz-adv-x="682" d="M472 1082V835H215V1082H472ZM210 -327L239 664H442L471 -327H210Z" />
<glyph unicode="&#xa2;" horiz-adv-x="1139" d="M591 319Q681 319 742 372T818 529L1067 517Q1046 367 940 269T666 152V-31H517V151Q307 171 193 309T79 690Q79 929 191 1070T517 1235V1409H666V1235Q826 1217 929 1127T1059 890L810 876Q795 967 739 1017T589
1068Q458 1068 394 975T330 698Q330 510 397 415T591 319Z" />
<glyph unicode="&#xa3;" horiz-adv-x="1139" d="M1113 346Q1087 181 988 91T740 0H44V188Q142 242 181 316T221 502V611H33V767H214V1026Q214 1225 319 1327T632 1430Q794 1430 892 1364T1030 1159L817 1109Q796 1182 750 1217T637 1253Q538 1253 493 1196T447
1013V767H774V611H447V509Q447 401 405 321T270 190H684Q782 190 835 238T904 378L1113 346Z" />
<glyph unicode="&#xa4;" horiz-adv-x="1139" d="M135 684Q135 811 201 915L79 1037L218 1176L339 1053Q444 1120 570 1120Q696 1120 800 1054L922 1176L1062 1036L939 914Q1006 809 1006 684Q1006 558 940 455L1063 333L923 192L801 315Q696 250 570 250Q441 250
339 315L214 188L76 329L200 454Q135 557 135 684ZM337 686Q337 622 368 569T453 485T570 453Q633 453 685 484T770 569T802 686Q802 751 771 803T687 887T570 919Q506 919 454 888T369 804T337 686Z" />
<glyph unicode="&#xa5;" horiz-adv-x="1139" d="M689 258V0H448V258H97V399H448L450 558H97V697H388L5 1409H264L567 796L875 1409H1134L751 697H1042V558H689V399H1042V258H689Z" />
<glyph unicode="&#xa6;" horiz-adv-x="559" d="M395 1464V686H165V1464H395ZM395 331V-448H165V331H395Z" />
<glyph unicode="&#xa7;" horiz-adv-x="1139" d="M579 1446Q766 1446 880 1377T1021 1177L808 1153Q795 1220 736 1254T579 1289Q463 1289 407 1257T350 1157Q350 1113 378 1083T458 1029Q510 1006 640 976Q797 940 881 898Q960 857 1002 797T1045 651Q1045 556
989 484T841 385Q939 342 986 279T1033 125Q1033 -36 911 -123T563 -210Q345 -210 228 -142T74 73L285 108Q305 24 369 -14T563 -53Q690 -53 756 -17T822 100Q822 151 795 184T714 242Q659 267 485 308Q283 356 198 434T112 624Q112 715 169 782T330 883Q238 919
187 987T135 1139Q135 1285 248 1365T579 1446ZM834 621Q834 692 772 735Q708 778 534 813Q433 804 380 761T326 646Q326 602 354 572T434 518Q484 496 619 464Q724 468 779 508T834 621Z" />
<glyph unicode="&#xa8;" horiz-adv-x="682" d="M645 1413V1206H446V1413H645ZM223 1413V1206H26V1413H223Z" />
<glyph unicode="&#xa9;" horiz-adv-x="1509" d="M1478 707Q1478 514 1382 346Q1285 177 1117 81T755 -16Q559 -16 389 85Q220 186 126 352T32 707Q32 901 129 1068Q226 1236 394 1333T755 1430Q949 1430 1118 1333Q1286 1236 1382 1069T1478 707ZM1372 707Q1372
873 1290 1014Q1207 1156 1064 1239T755 1322Q594 1322 452 1242Q310 1161 225 1018T140 707Q140 542 223 399Q305 255 447 173T755 90Q920 90 1064 173Q1208 255 1290 398T1372 707ZM529 709Q529 567 592 490T767 412Q912 412 975 559L1120 516Q1061 392 975 338T767
283Q576 283 471 394T366 709Q366 912 467 1019T759 1127Q1013 1127 1107 905L965 866Q937 930 886 964T763 998Q648 998 589 925T529 709Z" />
<glyph unicode="&#xaa;" horiz-adv-x="758" d="M258 700Q157 700 98 754T39 908Q39 1124 332 1129L489 1132V1180Q489 1246 460 1278T370 1311Q313 1311 281 1286T243 1203L66 1213Q84 1313 162 1368T368 1423Q509 1423 583 1362T658 1183V923Q658 871 669 846T713
822Q725 823 736 824T760 828V721Q702 704 653 704Q582 704 542 741T496 841H493Q420 700 258 700ZM318 825Q389 825 439 876T489 998V1037L382 1035Q284 1031 250 1004T215 922Q215 825 318 825Z" />
<glyph unicode="&#xab;" horiz-adv-x="1139" d="M1050 174V141H833L550 503V572L833 940H1048V905L766 537L1050 174ZM588 174V141H373L89 503V572L373 940H586V905L305 537L588 174Z" />
<glyph unicode="&#xac;" horiz-adv-x="1196" d="M1106 780V154H908V582H89V780H1106Z" />
<glyph unicode="&#xad;" horiz-adv-x="682" d="M597 643V427H84V643H597Z" />
<glyph unicode="&#xae;" horiz-adv-x="1509" d="M1478 707Q1478 514 1382 346Q1285 177 1117 81T755 -16Q559 -16 389 85Q220 186 126 352T32 707Q32 901 129 1068Q226 1236 394 1333T755 1430Q949 1430 1118 1333Q1286 1236 1382 1069T1478 707ZM1372 707Q1372
873 1290 1014Q1207 1156 1064 1239T755 1322Q594 1322 452 1242Q310 1161 225 1018T140 707Q140 542 223 399Q305 255 447 173T755 90Q920 90 1064 173Q1208 255 1290 398T1372 707ZM617 615V294H456V1115H778Q928 1115 1003 1051T1079 874Q1079 778 1030 718T900
635L1116 294H934L749 615H617ZM917 872Q917 934 876 965T762 997H617V733H774Q844 733 880 771T917 872Z" />
<glyph unicode="&#xaf;" horiz-adv-x="1131" d="M1148 1546V1452H-17V1546H1148Z" />
<glyph unicode="&#xb0;" horiz-adv-x="819" d="M719 1124Q719 1040 678 970T566 859T410 817Q325 817 255 858T143 968T101 1121Q101 1206 142 1275T254 1385T410 1427Q496 1427 566 1386T677 1277T719 1124ZM578 1122Q578 1194 530 1243T409 1292Q337 1292 289
1242T240 1122Q240 1051 290 1001T410 950Q479 950 528 1000T578 1122Z" />
<glyph unicode="&#xb1;" horiz-adv-x="1124" d="M661 698V339H463V698H54V895H463V1253H661V895H1071V698H661ZM1071 197V0H54V197H1071Z" />
<glyph unicode="&#xb2;" horiz-adv-x="682" d="M640 780V650H50L48 765Q77 829 134 886T287 1007Q377 1067 413 1109T450 1198Q450 1249 425 1276T347 1304Q296 1304 266 1276T229 1192L56 1198Q69 1300 146 1362T349 1424Q479 1424 553 1367T627 1207Q627 1074
463 963Q408 926 370 899T311 853Q268 816 251 780H640Z" />
<glyph unicode="&#xb3;" horiz-adv-x="682" d="M639 862Q639 757 564 699T348 640Q211 640 132 693T38 854L210 866Q223 759 346 759Q468 759 468 872Q468 980 312 980H254V1100H307Q376 1100 412 1128T449 1206Q449 1252 422 1278T342 1304Q290 1304 260 1278T224
1200L55 1212Q66 1311 143 1367T346 1424Q475 1424 547 1370T620 1227Q620 1159 581 1111T460 1044V1042Q545 1033 592 985T639 862Z" />
<glyph unicode="&#xb4;" horiz-adv-x="682" d="M563 1466L227 1189H82V1216L322 1504H563V1466Z" />
<glyph unicode="&#xb5;" horiz-adv-x="1213" d="M136 -426V1082H384V450Q384 304 430 236T576 168Q678 168 732 248T786 488V1082H1033L1032 302Q1032 216 1051 182T1117 147Q1146 147 1176 154V9Q1131 -3 1097 -9T1019 -15Q918 -15 869 30T810 177H805Q766 70
704 25T556 -20Q499 -20 454 3T383 66V-426H136Z" />
<glyph unicode="&#xb6;" horiz-adv-x="1126" d="M578 1280V-264H437V694Q268 694 171 786T74 1049Q74 1218 172 1313T445 1409H1052V1280H921V-264H780V1280H578Z" />
<glyph unicode="&#xb7;" horiz-adv-x="682" d="M432 779V503H175V779H432Z" />
<glyph unicode="&#xb8;" horiz-adv-x="682" d="M494 -241Q494 -334 420 -381T201 -428Q151 -428 104 -423V-311Q142 -318 188 -318Q329 -318 329 -245Q329 -209 299 -191T203 -173Q183 -173 170 -173T149 -175L212 0H343L308 -88Q402 -92 448 -133T494 -241Z" />
<glyph unicode="&#xb9;" horiz-adv-x="682" d="M624 767V650H81V767H274V1285L92 1167V1289L282 1412H439V767H624Z" />
<glyph unicode="&#xba;" horiz-adv-x="748" d="M716 1063Q716 892 627 796T374 700Q217 700 128 795T39 1063Q39 1234 127 1328T378 1423Q542 1423 629 1332T716 1063ZM533 1063Q533 1185 499 1239T380 1293Q296 1293 259 1238T222 1063Q222 944 258 887T373 829Q460
829 496 885T533 1063Z" />
<glyph unicode="&#xbb;" horiz-adv-x="1139" d="M766 141H551V174L835 537L553 905V940H766L1051 572V503L766 141ZM306 141H90V174L373 537L92 905V940H306L589 572V503L306 141Z" />
<glyph unicode="&#xbc;" horiz-adv-x="1708" d="M624 767V650H81V767H274V1285L92 1167V1289L282 1412H439V767H624ZM1417 1409L527 0H344L1234 1409H1417ZM1506 154V1H1341V154H976V290L1315 763H1506V285H1612V154H1506ZM1344 627Q1326 596 1310 568T1273 510L1113
285H1341V511Q1341 539 1342 568T1344 627Z" />
<glyph unicode="&#xbd;" horiz-adv-x="1708" d="M624 767V650H81V767H274V1285L92 1167V1289L282 1412H439V767H624ZM1403 1409L513 0H330L1220 1409H1403ZM1625 130V0H1035L1033 115Q1062 179 1119 236T1272 357Q1362 417 1398 459T1435 548Q1435 599 1410 626T1332
654Q1281 654 1251 626T1214 542L1041 548Q1054 650 1131 712T1334 774Q1464 774 1538 717T1612 557Q1612 424 1448 313Q1393 276 1355 249T1296 203Q1253 166 1236 130H1625Z" />
<glyph unicode="&#xbe;" horiz-adv-x="1708" d="M1423 1409L533 0H350L1240 1409H1423ZM1506 154V1H1341V154H976V290L1315 763H1506V285H1612V154H1506ZM1344 627Q1326 596 1310 568T1273 510L1113 285H1341V511Q1341 539 1342 568T1344 627ZM694 862Q694 757
619 699T403 640Q266 640 187 693T93 854L265 866Q278 759 401 759Q523 759 523 872Q523 980 367 980H309V1100H362Q431 1100 467 1128T504 1206Q504 1252 477 1278T397 1304Q345 1304 315 1278T279 1200L110 1212Q121 1311 198 1367T401 1424Q530 1424 602 1370T675
1227Q675 1159 636 1111T515 1044V1042Q600 1033 647 985T694 862Z" />
<glyph unicode="&#xbf;" horiz-adv-x="1251" d="M791 1082V835H534V1082H791ZM120 54Q120 156 165 234T330 398L408 455Q543 553 547 672H783Q780 596 753 537T679 429T570 337Q504 290 459 250T392 166T369 65Q369 -32 433 -88T615 -144Q729 -144 802 -82T887
87L1139 75Q1112 -127 976 -237T618 -348Q386 -348 253 -241T120 54Z" />
<glyph unicode="&#xc0;" horiz-adv-x="1441" d="M435 377L298 0H35L570 1409H874L1404 0H1144L1007 377H435ZM721 1216Q709 1171 689 1111T657 1018L499 575H944L783 1026Q769 1065 753 1114T721 1216ZM913 1557V1530H762L432 1764V1802H673L913 1557Z" />
<glyph unicode="&#xc1;" horiz-adv-x="1441" d="M435 377L298 0H35L570 1409H874L1404 0H1144L1007 377H435ZM721 1216Q709 1171 689 1111T657 1018L499 575H944L783 1026Q769 1065 753 1114T721 1216ZM1045 1764L715 1530H564V1557L804 1802H1045V1764Z" />
<glyph unicode="&#xc2;" horiz-adv-x="1441" d="M435 377L298 0H35L570 1409H874L1404 0H1144L1007 377H435ZM721 1216Q709 1171 689 1111T657 1018L499 575H944L783 1026Q769 1065 753 1114T721 1216ZM364 1530V1556L614 1820H835L1076 1556V1530H935L727 1677H723L505
1530H364Z" />
<glyph unicode="&#xc3;" horiz-adv-x="1441" d="M435 377L298 0H35L570 1409H874L1404 0H1144L1007 377H435ZM721 1216Q709 1171 689 1111T657 1018L499 575H944L783 1026Q769 1065 753 1114T721 1216ZM884 1530Q842 1530 800 1549T715 1591Q675 1614 637 1633T567
1652Q521 1652 498 1626T462 1530H341Q353 1693 410 1754T558 1815Q600 1815 643 1796T729 1753Q770 1730 807 1712T874 1693Q917 1693 942 1719T979 1815H1100Q1089 1661 1035 1596T884 1530Z" />
<glyph unicode="&#xc4;" horiz-adv-x="1441" d="M435 377L298 0H35L570 1409H874L1404 0H1144L1007 377H435ZM721 1216Q709 1171 689 1111T657 1018L499 575H944L783 1026Q769 1065 753 1114T721 1216ZM1032 1737V1530H846V1737H1032ZM596 1737V1530H412V1737H596Z" />
<glyph unicode="&#xc5;" horiz-adv-x="1441" d="M435 377L298 0H35L570 1409H874L1404 0H1144L1007 377H435ZM721 1216Q709 1171 689 1111T657 1018L499 575H944L783 1026Q769 1065 753 1114T721 1216ZM971 1550Q971 1481 938 1425T848 1334T721 1300Q652 1300
595 1334T505 1424T471 1550Q471 1619 505 1675T595 1765T721 1799Q790 1799 846 1766T937 1676T971 1550ZM850 1550Q850 1602 813 1640T721 1678Q668 1678 631 1641T593 1550Q593 1494 630 1457T721 1419Q776 1419 813 1457T850 1550Z" />
<glyph unicode="&#xc6;" horiz-adv-x="2048" d="M461 377L280 0H11L706 1409H1924V1206H1204V818H1863V620H1204V203H1965V0H944V377H461ZM552 575H944V1215H853L552 575Z" />
<glyph unicode="&#xc7;" horiz-adv-x="1479" d="M797 187Q1074 187 1192 463L1416 373Q1331 176 1172 78T794 -20Q572 -20 415 67T174 319T91 711Q91 941 171 1101T407 1345T785 1430Q1025 1430 1179 1335T1399 1052L1166 985Q1127 1097 1027 1160T789 1223Q578
1223 466 1091T353 711Q353 546 405 429T557 249T797 187ZM990 -241Q990 -334 916 -381T697 -428Q647 -428 600 -423V-311Q638 -318 684 -318Q825 -318 825 -245Q825 -209 795 -191T699 -173Q679 -173 666 -173T645 -175L708 0H839L804 -88Q898 -92 944 -133T990
-241Z" />
<glyph unicode="&#xc8;" horiz-adv-x="1366" d="M1283 204V0H147V1409H1242V1205H408V818H1182V615H408V204H1283ZM886 1557V1530H735L405 1764V1802H646L886 1557Z" />
<glyph unicode="&#xc9;" horiz-adv-x="1366" d="M1283 204V0H147V1409H1242V1205H408V818H1182V615H408V204H1283ZM1009 1764L679 1530H528V1557L768 1802H1009V1764Z" />
<glyph unicode="&#xca;" horiz-adv-x="1366" d="M1283 204V0H147V1409H1242V1205H408V818H1182V615H408V204H1283ZM354 1530V1556L604 1820H825L1066 1556V1530H925L717 1677H713L495 1530H354Z" />
<glyph unicode="&#xcb;" horiz-adv-x="1366" d="M1283 204V0H147V1409H1242V1205H408V818H1182V615H408V204H1283ZM1018 1737V1530H832V1737H1018ZM582 1737V1530H398V1737H582Z" />
<glyph unicode="&#xcc;" horiz-adv-x="569" d="M415 1409V0H154V1409H415ZM713 1557V1530H562L232 1764V1802H473L713 1557Z" />
<glyph unicode="&#xcd;" horiz-adv-x="569" d="M415 1409V0H154V1409H415ZM598 1764L268 1530H117V1557L357 1802H598V1764Z" />
<glyph unicode="&#xce;" horiz-adv-x="569" d="M415 1409V0H154V1409H415ZM184 1530V1556L434 1820H655L896 1556V1530H755L547 1677H543L325 1530H184Z" />
<glyph unicode="&#xcf;" horiz-adv-x="569" d="M415 1409V0H154V1409H415ZM851 1737V1530H665V1737H851ZM415 1737V1530H231V1737H415Z" />
<glyph unicode="&#xd0;" horiz-adv-x="1479" d="M1389 716Q1389 492 1302 332T1061 86T703 0H147V612H10V809H147V1409H643Q999 1409 1194 1230T1389 716ZM1127 716Q1127 954 1001 1079T637 1204H408V809H780V612H408V205H679Q817 205 917 267T1072 443T1127 716Z" />
<glyph unicode="&#xd1;" horiz-adv-x="1479" d="M379 866V0H147V1409H446L1115 277Q1099 444 1099 555V1409H1331V0H1024L363 1123Q370 1049 374 985T379 866ZM907 1530Q865 1530 823 1549T738 1591Q698 1614 660 1633T590 1652Q544 1652 521 1626T485 1530H364Q376
1693 433 1754T581 1815Q623 1815 666 1796T752 1753Q793 1730 830 1712T897 1693Q940 1693 965 1719T1002 1815H1123Q1112 1661 1058 1596T907 1530Z" />
<glyph unicode="&#xd2;" horiz-adv-x="1593" d="M1503 711Q1503 489 1416 325T1169 70T794 -20Q574 -20 416 68T173 321T88 711Q88 937 172 1098T415 1344T796 1430Q1017 1430 1175 1344T1418 1097T1503 711ZM1237 711Q1237 951 1122 1087T796 1223Q583 1223 467
1088T351 711Q351 550 404 432T557 250T794 186Q1007 186 1122 323T1237 711ZM1027 1557V1530H876L546 1764V1802H787L1027 1557Z" />
<glyph unicode="&#xd3;" horiz-adv-x="1593" d="M1503 711Q1503 489 1416 325T1169 70T794 -20Q574 -20 416 68T173 321T88 711Q88 937 172 1098T415 1344T796 1430Q1017 1430 1175 1344T1418 1097T1503 711ZM1237 711Q1237 951 1122 1087T796 1223Q583 1223 467
1088T351 711Q351 550 404 432T557 250T794 186Q1007 186 1122 323T1237 711ZM1105 1764L775 1530H624V1557L864 1802H1105V1764Z" />
<glyph unicode="&#xd4;" horiz-adv-x="1593" d="M1503 711Q1503 489 1416 325T1169 70T794 -20Q574 -20 416 68T173 321T88 711Q88 937 172 1098T415 1344T796 1430Q1017 1430 1175 1344T1418 1097T1503 711ZM1237 711Q1237 951 1122 1087T796 1223Q583 1223 467
1088T351 711Q351 550 404 432T557 250T794 186Q1007 186 1122 323T1237 711ZM440 1530V1556L690 1820H911L1152 1556V1530H1011L803 1677H799L581 1530H440Z" />
<glyph unicode="&#xd5;" horiz-adv-x="1593" d="M1503 711Q1503 489 1416 325T1169 70T794 -20Q574 -20 416 68T173 321T88 711Q88 937 172 1098T415 1344T796 1430Q1017 1430 1175 1344T1418 1097T1503 711ZM1237 711Q1237 951 1122 1087T796 1223Q583 1223 467
1088T351 711Q351 550 404 432T557 250T794 186Q1007 186 1122 323T1237 711ZM950 1530Q908 1530 866 1549T781 1591Q741 1614 703 1633T633 1652Q587 1652 564 1626T528 1530H407Q419 1693 476 1754T624 1815Q666 1815 709 1796T795 1753Q836 1730 873 1712T940
1693Q983 1693 1008 1719T1045 1815H1166Q1155 1661 1101 1596T950 1530Z" />
<glyph unicode="&#xd6;" horiz-adv-x="1593" d="M1503 711Q1503 489 1416 325T1169 70T794 -20Q574 -20 416 68T173 321T88 711Q88 937 172 1098T415 1344T796 1430Q1017 1430 1175 1344T1418 1097T1503 711ZM1237 711Q1237 951 1122 1087T796 1223Q583 1223 467
1088T351 711Q351 550 404 432T557 250T794 186Q1007 186 1122 323T1237 711ZM1105 1737V1530H919V1737H1105ZM669 1737V1530H485V1737H669Z" />
<glyph unicode="&#xd7;" horiz-adv-x="1196" d="M600 544L244 187L105 327L460 684L108 1036L248 1174L599 823L951 1175L1091 1035L740 683L1092 332L952 190L600 544Z" />
<glyph unicode="&#xd8;" horiz-adv-x="1593" d="M1504 711Q1504 490 1417 326T1170 71T794 -20Q571 -20 416 69L315 -66H122L291 159Q88 354 88 711Q88 937 172 1098T415 1344T796 1430Q1009 1430 1170 1344L1265 1471H1457L1296 1255Q1399 1160 1451 1023T1504
711ZM351 711Q351 499 441 364L1036 1160Q934 1223 796 1223Q583 1223 467 1088T351 711ZM1238 711Q1238 920 1148 1052L551 253Q652 186 794 186Q1008 186 1123 323T1238 711Z" />
<glyph unicode="&#xd9;" horiz-adv-x="1479" d="M726 -20Q539 -20 407 43T205 228T135 523V1409H395V543Q395 368 480 277T731 186Q899 186 991 280T1083 554V1409H1343V539Q1343 363 1269 238T1057 47T726 -20ZM926 1557V1530H775L445 1764V1802H686L926 1557Z" />
<glyph unicode="&#xda;" horiz-adv-x="1479" d="M726 -20Q539 -20 407 43T205 228T135 523V1409H395V543Q395 368 480 277T731 186Q899 186 991 280T1083 554V1409H1343V539Q1343 363 1269 238T1057 47T726 -20ZM1064 1764L734 1530H583V1557L823 1802H1064V1764Z" />
<glyph unicode="&#xdb;" horiz-adv-x="1479" d="M726 -20Q539 -20 407 43T205 228T135 523V1409H395V543Q395 368 480 277T731 186Q899 186 991 280T1083 554V1409H1343V539Q1343 363 1269 238T1057 47T726 -20ZM381 1530V1556L631 1820H852L1093 1556V1530H952L744
1677H740L522 1530H381Z" />
<glyph unicode="&#xdc;" horiz-adv-x="1479" d="M726 -20Q539 -20 407 43T205 228T135 523V1409H395V543Q395 368 480 277T731 186Q899 186 991 280T1083 554V1409H1343V539Q1343 363 1269 238T1057 47T726 -20ZM1048 1737V1530H862V1737H1048ZM612 1737V1530H428V1737H612Z"
/>
<glyph unicode="&#xdd;" horiz-adv-x="1366" d="M813 580V0H554V580L38 1409H314L683 788L1053 1409H1329L813 580ZM1009 1764L679 1530H528V1557L768 1802H1009V1764Z" />
<glyph unicode="&#xde;" horiz-adv-x="1366" d="M1283 736Q1283 605 1223 504T1049 346T779 288H408V0H147V1409H408V1170H767Q1016 1170 1149 1057T1283 736ZM1021 732Q1021 850 950 916T737 983H408V474H745Q877 474 949 542T1021 732Z" />
<glyph unicode="&#xdf;" horiz-adv-x="1251" d="M1184 306Q1184 148 1086 64T807 -20Q651 -20 538 25L537 217Q588 192 659 174T786 155Q870 155 911 192T952 294Q952 350 913 396T779 503Q692 558 649 623T605 768Q605 825 633 873T717 969Q777 1021 802 1062T828
1150Q828 1219 775 1260T626 1302Q508 1302 449 1233T390 1016V0H143V1014Q143 1245 267 1364T628 1484Q829 1484 946 1397T1063 1162Q1063 1083 1031 1026T950 924Q916 893 891 869T851 825T837 785Q837 763 850 744T900 696T1011 614Q1184 490 1184 306Z" />
<glyph unicode="&#xe0;" horiz-adv-x="1139" d="M651 -20Q492 -20 406 65T320 305Q320 473 430 561T760 653L997 657V714Q997 828 954 881T814 935Q722 935 679 898T627 776L369 791Q421 1102 823 1102Q1028 1102 1136 1004T1245 722V304Q1245 217 1265 181T1338
144Q1368 144 1399 150V11Q1353 0 1317 -5T1232 -11Q1128 -11 1080 41T1022 198H1016Q954 86 864 33T651 -20ZM997 512L835 509Q727 506 678 487Q629 467 603 426T577 318Q577 238 616 197T725 156Q802 156 864 195Q926 234 961 302T997 446V512ZM739 1216V1189H595L258
1466V1504H499L739 1216Z" />
<glyph unicode="&#xe1;" horiz-adv-x="1139" d="M651 -20Q492 -20 406 65T320 305Q320 473 430 561T760 653L997 657V714Q997 828 954 881T814 935Q722 935 679 898T627 776L369 791Q421 1102 823 1102Q1028 1102 1136 1004T1245 722V304Q1245 217 1265 181T1338
144Q1368 144 1399 150V11Q1353 0 1317 -5T1232 -11Q1128 -11 1080 41T1022 198H1016Q954 86 864 33T651 -20ZM997 512L835 509Q727 506 678 487Q629 467 603 426T577 318Q577 238 616 197T725 156Q802 156 864 195Q926 234 961 302T997 446V512ZM868 1466L532
1189H387V1216L627 1504H868V1466Z" />
<glyph unicode="&#xe2;" horiz-adv-x="1139" d="M651 -20Q492 -20 406 65T320 305Q320 473 430 561T760 653L997 657V714Q997 828 954 881T814 935Q722 935 679 898T627 776L369 791Q421 1102 823 1102Q1028 1102 1136 1004T1245 722V304Q1245 217 1265 181T1338
144Q1368 144 1399 150V11Q1353 0 1317 -5T1232 -11Q1128 -11 1080 41T1022 198H1016Q954 86 864 33T651 -20ZM997 512L835 509Q727 506 678 487Q629 467 603 426T577 318Q577 238 616 197T725 156Q802 156 864 195Q926 234 961 302T997 446V512ZM205 1189V1214L455
1516H676L917 1214V1189H776L568 1373H565L347 1189H205Z" />
<glyph unicode="&#xe3;" horiz-adv-x="1139" d="M651 -20Q492 -20 406 65T320 305Q320 473 430 561T760 653L997 657V714Q997 828 954 881T814 935Q722 935 679 898T627 776L369 791Q421 1102 823 1102Q1028 1102 1136 1004T1245 722V304Q1245 217 1265 181T1338
144Q1368 144 1399 150V11Q1353 0 1317 -5T1232 -11Q1128 -11 1080 41T1022 198H1016Q954 86 864 33T651 -20ZM997 512L835 509Q727 506 678 487Q629 467 603 426T577 318Q577 238 616 197T725 156Q802 156 864 195Q926 234 961 302T997 446V512ZM725 1189Q686
1189 645 1207T564 1247Q521 1270 482 1290T408 1311Q363 1311 340 1285T304 1189H182Q195 1355 251 1414T400 1474Q444 1474 490 1453T580 1407Q618 1385 652 1369T715 1352Q759 1352 783 1378T820 1474H941Q931 1320 877 1255T725 1189Z" />
<glyph unicode="&#xe4;" horiz-adv-x="1139" d="M651 -20Q492 -20 406 65T320 305Q320 473 430 561T760 653L997 657V714Q997 828 954 881T814 935Q722 935 679 898T627 776L369 791Q421 1102 823 1102Q1028 1102 1136 1004T1245 722V304Q1245 217 1265 181T1338
144Q1368 144 1399 150V11Q1353 0 1317 -5T1232 -11Q1128 -11 1080 41T1022 198H1016Q954 86 864 33T651 -20ZM997 512L835 509Q727 506 678 487Q629 467 603 426T577 318Q577 238 616 197T725 156Q802 156 864 195Q926 234 961 302T997 446V512ZM867 1413V1206H668V1413H867ZM445
1413V1206H248V1413H445Z" />
<glyph unicode="&#xe5;" horiz-adv-x="1139" d="M651 -20Q492 -20 406 65T320 305Q320 473 430 561T760 653L997 657V714Q997 828 954 881T814 935Q722 935 679 898T627 776L369 791Q421 1102 823 1102Q1028 1102 1136 1004T1245 722V304Q1245 217 1265 181T1338
144Q1368 144 1399 150V11Q1353 0 1317 -5T1232 -11Q1128 -11 1080 41T1022 198H1016Q954 86 864 33T651 -20ZM997 512L835 509Q727 506 678 487Q629 467 603 426T577 318Q577 238 616 197T725 156Q802 156 864 195Q926 234 961 302T997 446V512ZM808 1424Q808
1355 775 1299T685 1208T558 1174Q489 1174 432 1208T342 1298T308 1424Q308 1493 342 1549T432 1639T558 1673Q627 1673 683 1640T774 1550T808 1424ZM687 1424Q687 1476 650 1514T558 1552Q505 1552 468 1515T430 1424Q430 1368 467 1331T558 1293Q613 1293 650
1331T687 1424Z" />
<glyph unicode="&#xe6;" horiz-adv-x="1821" d="M1714 261Q1605 -20 1255 -20Q942 -20 825 218Q754 95 651 38T405 -20Q242 -20 154 66T66 305Q66 644 519 653L759 657V714Q759 831 714 883T570 935Q471 935 427 897T373 776L115 791Q140 944 256 1023T577 1102Q805
1102 915 984Q1042 1102 1256 1102Q1491 1102 1612 951T1734 506V485H1017Q1017 323 1082 237T1265 150Q1353 150 1408 187T1484 292L1714 261ZM1491 656Q1480 800 1420 870T1252 940Q1144 940 1084 866T1019 656H1491ZM323 318Q323 238 364 197T479 156Q559 156
623 197Q687 237 723 306T759 452V512L593 509Q481 506 427 486Q375 465 349 424T323 318Z" />
<glyph unicode="&#xe7;" horiz-adv-x="1101" d="M580 -20Q341 -20 212 125T82 537Q82 807 212 954T582 1102Q765 1102 885 1010T1035 754L785 740Q772 825 721 875T577 926Q456 926 399 834T342 546Q342 349 401 252T580 155Q665 155 722 206T794 360L1043 347Q1028
237 966 154T805 26T580 -20ZM777 -241Q777 -334 703 -381T484 -428Q434 -428 387 -423V-311Q425 -318 471 -318Q612 -318 612 -245Q612 -209 582 -191T486 -173Q466 -173 453 -173T432 -175L495 0H626L591 -88Q685 -92 731 -133T777 -241Z" />
<glyph unicode="&#xe8;" horiz-adv-x="1139" d="M342 492Q342 325 406 238T593 150Q681 150 736 187T812 292L1042 261Q933 -20 583 -20Q341 -20 212 124T82 547Q82 815 212 958T584 1102Q819 1102 940 951T1062 506V492H342ZM819 656Q808 800 748 870T580 940Q470
940 409 865T344 656H819ZM781 1216V1189H637L300 1466V1504H541L781 1216Z" />
<glyph unicode="&#xe9;" horiz-adv-x="1139" d="M342 492Q342 325 406 238T593 150Q681 150 736 187T812 292L1042 261Q933 -20 583 -20Q341 -20 212 124T82 547Q82 815 212 958T584 1102Q819 1102 940 951T1062 506V492H342ZM819 656Q808 800 748 870T580 940Q470
940 409 865T344 656H819ZM906 1466L570 1189H425V1216L665 1504H906V1466Z" />
<glyph unicode="&#xea;" horiz-adv-x="1139" d="M342 492Q342 325 406 238T593 150Q681 150 736 187T812 292L1042 261Q933 -20 583 -20Q341 -20 212 124T82 547Q82 815 212 958T584 1102Q819 1102 940 951T1062 506V492H342ZM819 656Q808 800 748 870T580 940Q470
940 409 865T344 656H819ZM230 1189V1214L480 1516H701L942 1214V1189H801L593 1373H590L372 1189H230Z" />
<glyph unicode="&#xeb;" horiz-adv-x="1139" d="M342 492Q342 325 406 238T593 150Q681 150 736 187T812 292L1042 261Q933 -20 583 -20Q341 -20 212 124T82 547Q82 815 212 958T584 1102Q819 1102 940 951T1062 506V492H342ZM819 656Q808 800 748 870T580 940Q470
940 409 865T344 656H819ZM890 1413V1206H691V1413H890ZM468 1413V1206H271V1413H468Z" />
<glyph unicode="&#xec;" horiz-adv-x="569" d="M409 1082V0H161V1082H409ZM697 1216V1189H553L216 1466V1504H457L697 1216Z" />
<glyph unicode="&#xed;" horiz-adv-x="569" d="M409 1082V0H161V1082H409ZM602 1466L266 1189H121V1216L361 1504H602V1466Z" />
<glyph unicode="&#xee;" horiz-adv-x="569" d="M409 1082V0H161V1082H409ZM186 1189V1214L436 1516H657L898 1214V1189H757L549 1373H546L328 1189H186Z" />
<glyph unicode="&#xef;" horiz-adv-x="569" d="M409 1082V0H161V1082H409ZM851 1413V1206H652V1413H851ZM429 1413V1206H232V1413H429Z" />
<glyph unicode="&#xf0;" horiz-adv-x="1214" d="M604 -19Q359 -19 221 113T82 480Q82 716 219 845T609 975Q724 975 795 934Q716 1096 617 1201L322 1075V1236L505 1314Q457 1352 394 1395T252 1484H517Q609 1440 681 1387L961 1507V1344L810 1281Q972 1122 1053
934T1135 533Q1135 268 997 125T604 -19ZM876 478Q876 649 811 725T613 802Q475 802 409 723T342 478Q342 316 407 234T600 152Q737 152 806 229T876 478Z" />
<glyph unicode="&#xf1;" horiz-adv-x="1214" d="M391 596V0H144V844Q144 933 142 989T136 1082H372Q374 1068 376 1029T381 947T383 877H387Q445 997 529 1050T734 1103Q908 1103 997 1002T1086 698V0H839V633Q839 780 790 848T636 916Q524 916 458 828T391 596ZM785
1189Q746 1189 705 1207T624 1247Q581 1270 542 1290T468 1311Q423 1311 400 1285T364 1189H242Q255 1355 311 1414T460 1474Q504 1474 550 1453T640 1407Q678 1385 712 1369T775 1352Q819 1352 843 1378T880 1474H1001Q991 1320 937 1255T785 1189Z" />
<glyph unicode="&#xf2;" horiz-adv-x="1214" d="M1132 542Q1132 272 993 126T602 -20Q355 -20 219 128T82 542Q82 809 218 955T608 1102Q868 1102 1000 960T1132 542ZM873 542Q873 745 809 837T612 929Q474 929 408 834T342 542Q342 350 406 251T600 152Q740 152
806 248T873 542ZM809 1216V1189H665L328 1466V1504H569L809 1216Z" />
<glyph unicode="&#xf3;" horiz-adv-x="1214" d="M1132 542Q1132 272 993 126T602 -20Q355 -20 219 128T82 542Q82 809 218 955T608 1102Q868 1102 1000 960T1132 542ZM873 542Q873 745 809 837T612 929Q474 929 408 834T342 542Q342 350 406 251T600 152Q740 152
806 248T873 542ZM935 1466L599 1189H454V1216L694 1504H935V1466Z" />
<glyph unicode="&#xf4;" horiz-adv-x="1214" d="M1132 542Q1132 272 993 126T602 -20Q355 -20 219 128T82 542Q82 809 218 955T608 1102Q868 1102 1000 960T1132 542ZM873 542Q873 745 809 837T612 929Q474 929 408 834T342 542Q342 350 406 251T600 152Q740 152
806 248T873 542ZM251 1189V1214L501 1516H722L963 1214V1189H822L614 1373H611L393 1189H251Z" />
<glyph unicode="&#xf5;" horiz-adv-x="1214" d="M1132 542Q1132 272 993 126T602 -20Q355 -20 219 128T82 542Q82 809 218 955T608 1102Q868 1102 1000 960T1132 542ZM873 542Q873 745 809 837T612 929Q474 929 408 834T342 542Q342 350 406 251T600 152Q740 152
806 248T873 542ZM774 1189Q735 1189 694 1207T613 1247Q570 1270 531 1290T457 1311Q412 1311 389 1285T353 1189H231Q244 1355 300 1414T449 1474Q493 1474 539 1453T629 1407Q667 1385 701 1369T764 1352Q808 1352 832 1378T869 1474H990Q980 1320 926 1255T774
1189Z" />
<glyph unicode="&#xf6;" horiz-adv-x="1214" d="M1132 542Q1132 272 993 126T602 -20Q355 -20 219 128T82 542Q82 809 218 955T608 1102Q868 1102 1000 960T1132 542ZM873 542Q873 745 809 837T612 929Q474 929 408 834T342 542Q342 350 406 251T600 152Q740 152
806 248T873 542ZM918 1413V1206H719V1413H918ZM496 1413V1206H299V1413H496Z" />
<glyph unicode="&#xf7;" horiz-adv-x="1124" d="M669 1176V960H454V1176H669ZM1071 780V582H54V780H1071ZM669 404V188H454V404H669Z" />
<glyph unicode="&#xf8;" horiz-adv-x="1251" d="M1151 542Q1151 272 1012 126T622 -20Q430 -20 302 72L193 -49H15L208 165Q102 308 102 542Q102 809 238 955T628 1102Q828 1102 953 1016L1051 1127H1229L1049 923Q1151 783 1151 542ZM361 542Q361 439 381 362L813
856Q750 929 632 929Q494 929 428 834T361 542ZM892 542Q892 649 874 724L442 230Q505 152 619 152Q760 152 826 248T892 542Z" />
<glyph unicode="&#xf9;" horiz-adv-x="1214" d="M830 205Q772 86 687 33T483 -20Q309 -20 220 80T131 384V1082H379V449Q379 300 427 233T581 166Q692 166 759 254T826 486V1082H1073V238Q1073 161 1075 102T1080 0H845Q841 50 838 100T834 205H830ZM783 1216V1189H639L302
1466V1504H543L783 1216Z" />
<glyph unicode="&#xfa;" horiz-adv-x="1214" d="M830 205Q772 86 687 33T483 -20Q309 -20 220 80T131 384V1082H379V449Q379 300 427 233T581 166Q692 166 759 254T826 486V1082H1073V238Q1073 161 1075 102T1080 0H845Q841 50 838 100T834 205H830ZM928 1466L592
1189H447V1216L687 1504H928V1466Z" />
<glyph unicode="&#xfb;" horiz-adv-x="1214" d="M830 205Q772 86 687 33T483 -20Q309 -20 220 80T131 384V1082H379V449Q379 300 427 233T581 166Q692 166 759 254T826 486V1082H1073V238Q1073 161 1075 102T1080 0H845Q841 50 838 100T834 205H830ZM248 1189V1214L498
1516H719L960 1214V1189H819L611 1373H608L390 1189H248Z" />
<glyph unicode="&#xfc;" horiz-adv-x="1214" d="M830 205Q772 86 687 33T483 -20Q309 -20 220 80T131 384V1082H379V449Q379 300 427 233T581 166Q692 166 759 254T826 486V1082H1073V238Q1073 161 1075 102T1080 0H845Q841 50 838 100T834 205H830ZM912 1413V1206H713V1413H912ZM490
1413V1206H293V1413H490Z" />
<glyph unicode="&#xfd;" horiz-adv-x="1101" d="M252 -425Q160 -425 93 -413V-234Q143 -242 186 -242Q279 -242 335 -186T441 9L12 1082H274L464 545Q485 487 511 405T564 226Q587 311 609 386T657 540L833 1082H1092L668 -38Q639 -113 610 -169T550 -268Q490
-351 419 -388T252 -425ZM875 1466L539 1189H394V1216L634 1504H875V1466Z" />
<glyph unicode="&#xfe;" horiz-adv-x="1214" d="M389 -7V-425H141V1484H389V1035Q389 996 388 956T385 872H389Q437 972 521 1020T732 1069Q926 1069 1027 931T1129 529Q1129 263 1024 122T720 -20Q480 -20 389 171H383Q389 148 389 -7ZM871 527Q871 717 814 805T637
893Q511 893 449 798T386 517Q386 338 448 245T635 152Q755 152 813 243T871 527Z" />
<glyph unicode="&#xff;" horiz-adv-x="1101" d="M252 -425Q160 -425 93 -413V-234Q143 -242 186 -242Q279 -242 335 -186T441 9L12 1082H274L464 545Q485 487 511 405T564 226Q587 311 609 386T657 540L833 1082H1092L668 -38Q639 -113 610 -169T550 -268Q490
-351 419 -388T252 -425ZM868 1413V1206H669V1413H868ZM446 1413V1206H249V1413H446Z" />
<glyph unicode="&#x2013;" horiz-adv-x="1139" d="M1097 630V449H41V630H1097Z" />
<glyph unicode="&#x2014;" horiz-adv-x="2048" d="M2048 630V449H0V630H2048Z" />
<glyph unicode="&#x2018;" horiz-adv-x="531" d="M391 1110V871H135V1050Q135 1163 158 1249T234 1409H396Q339 1334 308 1257T277 1110H391Z" />
<glyph unicode="&#x2019;" horiz-adv-x="531" d="M396 1231Q396 1115 374 1032T297 871H135Q254 1029 254 1170H140V1409H396V1231Z" />
<glyph unicode="&#x201a;" horiz-adv-x="531" d="M397 61Q397 -54 374 -139T299 -299H134Q192 -225 223 -148T255 0H140V238H397V61Z" />
<glyph unicode="&#x201c;" horiz-adv-x="910" d="M779 1110V871H522V1050Q522 1164 546 1249T622 1409H784Q727 1334 696 1257T665 1110H779ZM382 1110V871H126V1050Q126 1163 149 1249T224 1409H387Q330 1334 299 1257T268 1110H382Z" />
<glyph unicode="&#x201d;" horiz-adv-x="910" d="M784 1233Q784 1121 761 1035T685 871H522Q642 1028 642 1171H528V1409H784V1233ZM387 1233Q387 1114 364 1031T288 871H126Q244 1029 244 1171H130V1409H387V1233Z" />
<glyph unicode="&#x201e;" horiz-adv-x="910" d="M784 61Q784 -50 761 -136T685 -299H522Q577 -229 609 -151T642 0H528V238H784V61ZM387 61Q387 -57 364 -140T288 -299H126Q183 -224 213 -147T244 0H130V238H387V61Z" />
<glyph unicode="&#x2022;" horiz-adv-x="717" d="M646 678Q646 600 607 534T502 428T356 388Q278 388 213 427T109 533T70 678Q70 758 109 823T213 926T356 965Q436 965 501 926T606 823T646 678Z" />
<glyph unicode="&#x2039;" horiz-adv-x="682" d="M590 174V141H375L91 503V572L375 940H588V905L307 537L590 174Z" />
<glyph unicode="&#x203a;" horiz-adv-x="682" d="M92 141V174L375 537L94 905V940H308L591 572V503L308 141H92Z" />
</font>
</defs>
</svg>
